Загружается…
Ошибка

Таинственное убийство / В ночь на 12-е / La nuit du 12 / The Night of the 12th (Доминик Молль / Dominik Moll) [2022, Франция, Бельгия, Триллер, драма, криминал, детектив, BDRip 1080p] Dub (Paragraph Media) + Original (Fra) + Sub (fra, eng)

Страницы:  1

Ответить на тему
Автор Сообщение

KiberPirat

Таинственное убийство / В ночь на 12-е / La nuit du 12 / The Night of the 12th

Страна: Франция, Бельгия
Жанр: Триллер, драма, криминал, детектив
Год выпуска: 2022
Продолжительность: 01:53:50-Перевод: Профессиональный (дублированный) | Paragraph Media
Cубтитры: Французские (Full), Английские (Full)
Оригинальная аудиодорожка: Французский-Режиссёр: Доминик Молль / Dominik Moll
В ролях: Бастьен Буйон, Були Ланнерс, Тео Шольби, Йохан Дионне, Тибо Эврар, Жюльен Фрисон, Пол Жансон, Мона Соален, Полин Серийе, Лула Коттон-Фрапье
Описание: Каждый следователь сталкивается с преступлением, которое не может раскрыть и которое не дает ему покоя. Для Йохана это убийство Клары. Допросы и подозреваемые сменяют друг друга, а Йохан все больше сомневается в успехе. Точно известно одно: преступление произошло в ночь на 12-е.-
-Тип релиза: BDRip 1080p
Контейнер: MKV-Видео: AVC/H.264, 1920x1038, 15700 Kbps, 24.000 fps
Аудио 1: Русский | E-AC-3, 6 ch, 448 Kbps, 48.0 kHz
Аудио 2: Французский | DTS, 6 ch, 1509 Kbps, 48.0 kHz
Формат субтитров: softsub (SRT, PGS)-

MediaInfo

Код:
General
Unique ID                                : 65784341287929795258295484137401834550 (0x317D9A7048C332934E31151F8D415C36)
Complete name                            : /Volumes/Promise Pegasus/The.Night.of.the.12th.BDRip.1080p.pk.mkv
Format                                   : Matroska
Format version                           : Version 4
File size                                : 14.0 GiB
Duration                                 : 1 h 53 min
Overall bit rate                         : 17.6 Mb/s
Movie name                               : The Night of the 12th 2022 BDRip 1080p pk
Encoded date                             : UTC 2023-01-16 13:29:12
Writing application                      : mkvmerge v53.0.0 ('Fool's Gold') 64-bit
Writing library                          : libebml v1.4.1 + libmatroska v1.6.2
Video
ID                                       : 1
Format                                   : AVC
Format/Info                              : Advanced Video Codec
Format profile                           : High@L4.1
Format settings                          : CABAC / 4 Ref Frames
Format settings, CABAC                   : Yes
Format settings, Reference frames        : 4 frames
Codec ID                                 : V_MPEG4/ISO/AVC
Duration                                 : 1 h 53 min
Bit rate                                 : 15.7 Mb/s
Width                                    : 1 920 pixels
Height                                   : 1 038 pixels
Display aspect ratio                     : 1.85:1
Frame rate mode                          : Constant
Frame rate                               : 24.000 FPS
Color space                              : YUV
Chroma subsampling                       : 4:2:0
Bit depth                                : 8 bits
Scan type                                : Progressive
Bits/(Pixel*Frame)                       : 0.327
Stream size                              : 12.5 GiB (89%)
Writing library                          : x264 core 164 r3100+49 t_Mod encoded by pk5360114 in Russia
Encoding settings                        : cabac=1 / ref=4 / deblock=1:-3:-3 / analyse=0x3:0x133 / me=umh / subme=11 / psy=1 / fade_compensate=0.00 / psy_rd=1.05:0.00 / mixed_ref=1 / me_range=32 / chroma_me=1 / trellis=2 / 8x8dct=1 / cqm=0 / deadzone=21,11 / fast_pskip=0 / chroma_qp_offset=-2 / threads=32 / lookahead_threads=8 / sliced_threads=0 / nr=0 / decimate=0 / interlaced=0 / bluray_compat=0 / constrained_intra=0 / fgo=0 / bframes=11 / b_pyramid=2 / b_adapt=2 / b_bias=0 / direct=3 / weightb=1 / open_gop=0 / weightp=2 / keyint=240 / keyint_min=24 / scenecut=40 / intra_refresh=0 / rc_lookahead=60 / rc=crf / mbtree=0 / crf=16.8000 / qcomp=0.60 / qpmin=0:0:0 / qpmax=69:69:69 / qpstep=4 / vbv_maxrate=62500 / vbv_bufsize=78125 / crf_max=0.0 / nal_hrd=none / filler=0 / ip_ratio=1.30 / pb_ratio=1.20 / aq=3:0.80 / aq-sensitivity=10.00 / aq-factor=1.00:1.00:1.00 / aq2=0 / aq3=0
Language                                 : English
Default                                  : Yes
Forced                                   : No
Color range                              : Limited
Color primaries                          : BT.709
Transfer characteristics                 : BT.709
Matrix coefficients                      : BT.709
Audio #1
ID                                       : 2
Format                                   : E-AC-3
Format/Info                              : Enhanced AC-3
Commercial name                          : Dolby Digital Plus
Codec ID                                 : A_EAC3
Duration                                 : 1 h 53 min
Bit rate mode                            : Constant
Bit rate                                 : 448 kb/s
Channel(s)                               : 6 channels
Channel layout                           : L R C LFE Ls Rs
Sampling rate                            : 48.0 kHz
Frame rate                               : 31.250 FPS (1536 SPF)
Compression mode                         : Lossy
Stream size                              : 365 MiB (3%)
Title                                    : Russian Dub Paragraph Media
Language                                 : Russian
Service kind                             : Complete Main
Default                                  : Yes
Forced                                   : No
Audio #2
ID                                       : 3
Format                                   : DTS
Format/Info                              : Digital Theater Systems
Codec ID                                 : A_DTS
Duration                                 : 1 h 53 min
Bit rate mode                            : Constant
Bit rate                                 : 1 509 kb/s
Channel(s)                               : 6 channels
Channel layout                           : C L R Ls Rs LFE
Sampling rate                            : 48.0 kHz
Frame rate                               : 93.750 FPS (512 SPF)
Bit depth                                : 24 bits
Compression mode                         : Lossy
Stream size                              : 1.20 GiB (9%)
Title                                    : French Original
Language                                 : French
Default                                  : No
Forced                                   : No
Text #1
ID                                       : 4
Format                                   : PGS
Muxing mode                              : zlib
Codec ID                                 : S_HDMV/PGS
Codec ID/Info                            : Picture based subtitle format used on BDs/HD-DVDs
Duration                                 : 1 h 49 min
Bit rate                                 : 26.5 kb/s
Frame rate                               : 1.635 FPS
Count of elements                        : 10712
Stream size                              : 20.7 MiB (0%)
Title                                    : French full
Language                                 : French
Default                                  : No
Forced                                   : No
Text #2
ID                                       : 5
Format                                   : UTF-8
Codec ID                                 : S_TEXT/UTF8
Codec ID/Info                            : UTF-8 Plain Text
Duration                                 : 1 h 47 min
Bit rate                                 : 48 b/s
Frame rate                               : 0.234 FPS
Count of elements                        : 1507
Stream size                              : 38.0 KiB (0%)
Title                                    : English full
Language                                 : English
Default                                  : No
Forced                                   : No
Menu
00:00:00.000                             : Chapter 1
00:10:01.208                             : Chapter 2
00:21:50.083                             : Chapter 3
00:33:37.291                             : Chapter 4
00:44:19.041                             : Chapter 5
00:55:53.500                             : Chapter 6
01:10:35.791                             : Chapter 7
01:21:26.500                             : Chapter 8
01:34:30.666                             : Chapter 9
01:47:42.666                             : Chapter 10
01:53:49.000                             : Chapter 11

x264 log

Код:
x264 [info]: frame I:953   Avg QP:12.68  size:227579
x264 [info]: frame P:31252 Avg QP:14.35  size:132767
x264 [info]: frame B:131715 Avg QP:15.33  size: 68377
x264 [info]: consecutive B-frames:  1.1%  3.4%  4.0%  5.2%  6.3% 72.0%  3.4%  0.5%  1.2%  0.5%  0.6%  1.7%
x264 [info]: kb/s:15663.14

Скриншоты сравнения




Скриншоты