Загружается…
Ошибка

Щелкунчик и волшебная флейта (Виктор Глухушин) [2022, Россия, мультфильм, фэнтези, семейный, комедия, WEB-DL 1080p] Original Rus

Страницы:  1

Ответить на тему
Автор Сообщение

KiberPirat

Щелкунчик и волшебная флейта- Год выпуска: 2022
Производство: Россия, Кинокомпания CTB / СТВ
Жанр: Мультфильм, фэнтези, семейный, комедия
Продолжительность: 01:28:25
Субтитры: Отсутствуют-Режиссёр: Виктор Глухушин
В ролях: Фёдор Федотов, Любовь Аксёнова, Пётр Иващенко, Александр Гудков, Елена Шульман, Прохор Чеховской, Екатерина Тихомирова, Алексей Чумаков, Ольга Кузнецова, Диомид Виноградов, Павел Россошанский, Константин Ларченко-Описание: Мари попадает в королевство, власть в котором захватили крысы. Чтобы спасти жителей королевства от захватчиков и вернуться домой Мари должна найти волшебную флейту — она поможет снять чары. В этом ей будут помогать ее новые друзья — барашек Кудряш, страус Красный Клюв и Щелкунчик — заколдованный принц по имени Георг.-| | | |
Премьера в Росcии: 08 декабря 2022 года
Цифровой релиз: 19 января 2023 года
Возраст: 6+
Реклама: Отсутствует-Качество: WEB-DL 1080p
Формат: MKV
Видео кодек: H.264
Аудио кодек: E-AC3
Видео: MPEG-4 AVC, 1920x804, ~ 6000 Kбит/с, 0.162 bit/pixel, 24 Кадр/с, 8 бит
Аудио: 48 kHz, E-AC3, 5.1 (L R C LFE Ls Rs) ch, ~ 448 Кбит/с
-

Скриншоты

-

MI

Общее
Уникальный идентификатор : 54808951134601373145730870598451009549 (0x293BD1ECE66C8667E5832FE33537180D)
Полное имя : D:\Shchelkunchik.i.volshebnaya.flejta.2022.WEB-DL.1080p.mkv
Формат : Matroska
Версия формата : Version 4
Размер файла : 3,96 Гбайт
Продолжительность : 1 ч. 28 м.
Общий поток : 6 420 Кбит/сек
Название фильма : Shchelkunchik.i.volshebnaya.flejta.2022.WEB-DL.1080p
Дата кодирования : UTC 2023-01-18 22:28:41
Программа кодирования : mkvmerge v72.0.0 ('Minuano (Six-eight)') 64-bit
Библиотека кодирования : libebml v1.4.4 + libmatroska v1.7.1
Attachments : poster.jpg
Видео
Идентификатор : 1
Формат : AVC
Формат/Информация : Advanced Video Codec
Профиль формата : High@L4
Настройки формата : CABAC / 5 Ref Frames
Параметр CABAC формата : Да
Параметр RefFrames формата : 5 кадров
Идентификатор кодека : V_MPEG4/ISO/AVC
Продолжительность : 1 ч. 28 м.
Битрейт : 6 000 Кбит/сек
Ширина : 1 920 пикселей
Высота : 804 пикселя
Соотношение сторон : 2,40:1
Режим частоты кадров : Постоянный
Частота кадров : 24,000 кадра/сек
Цветовое пространство : YUV
Субдискретизация насыщенности : 4:2:0
Битовая глубина : 8 бит
Тип развёртки : Прогрессивная
Бит/(Пиксели*Кадры) : 0.162
Размер потока : 3,69 Гбайт (93%)
Библиотека кодирования : x264 core 157
Настройки программы : cabac=1 / ref=5 / deblock=1:0:0 / analyse=0x3:0x133 / me=umh / subme=10 / psy=1 / psy_rd=1.00:0.00 / mixed_ref=1 / me_range=24 / chroma_me=1 / trellis=2 / 8x8dct=1 / cqm=0 / deadzone=21,11 / fast_pskip=1 / chroma_qp_offset=-2 / threads=25 / lookahead_threads=4 / sliced_threads=0 / nr=0 / decimate=1 / interlaced=0 / bluray_compat=0 / stitchable=1 / constrained_intra=0 / bframes=8 / b_pyramid=2 / b_adapt=2 / b_bias=0 / direct=3 / weightb=1 / open_gop=0 / weightp=2 / keyint=250 / keyint_min=24 / scenecut=40 / intra_refresh=0 / rc_lookahead=60 / rc=2pass / mbtree=1 / bitrate=6000 / ratetol=1.0 / qcomp=0.60 / qpmin=0 / qpmax=69 / qpstep=4 / cplxblur=20.0 / qblur=0.5 / vbv_maxrate=6600 / vbv_bufsize=12000 / nal_hrd=none / filler=0 / ip_ratio=1.40 / aq=1:1.00
Default : Да
Forced : Нет
Аудио
Идентификатор : 2
Формат : E-AC-3
Формат/Информация : Enhanced AC-3
Коммерческое название : Dolby Digital Plus
Идентификатор кодека : A_EAC3
Продолжительность : 1 ч. 28 м.
Вид битрейта : Постоянный
Битрейт : 448 Кбит/сек
Каналы : 6 каналов
Channel layout : L R C LFE Ls Rs
Частота : 48,0 КГц
Частота кадров : 31,250 кадров/сек (1536 SPF)
Метод сжатия : С потерями
Размер потока : 283 Мбайт (7%)
Заголовок : [Original | 5.1 E-AC3 Audio]
Язык : Russian
Service kind : Complete Main
Default : Да
Forced : Нет