Загружается…
Ошибка

Отзвуки прошлого / The Old Way (Бретт Доноху / Brett Donowho) [2023, США, Боевик, вестерн, WEB-DL 1080p] MVO (TVShows) + Sub Eng + Original Eng

Страницы:  1

Ответить на тему
Автор Сообщение

KiberPirat

Отзвуки прошлого / The Old Way- Страна: США
Студия: Intercut Capital, Saturn Films, Tri-Fold Pictures, EchoWolf Productions
Жанр: Боевик, вестерн
Год выпуска: 2023
Продолжительность: 01:35:16-Перевод: Профессиональный (многоголосый закадровый)
TVShows
Субтитры: английские
Оригинальная аудиодорожка: английский-Режиссер: Бретт Доноху / Brett Donowho-В ролях: Николас Кейдж, Райан Кира Армстронг, Клинт Ховард, Керри Напп, Ноа Ле Грос, Эйбрахам Бенруби, Ник Сирси, Шайло Фернандес, Дин Армстронг, Корби Грисенбек, Бойд Кестнер, Адам Лазарр-Уайт, Скайлер Стоун, Бретт Доноху, Крэйг Брэнэм, Джефф Медли, Джо Пеппер, Бо Лайнелл, Эдди Спирс, Мези Этвуд-Описание: События происходят на Диком Западе и рассказывают историю Колтона Бриггса, бывшего стрелка, который искренне верил, что оставил прошлое позади. Однако, когда банда злодеев убивает его жену, Бриггс обнаруживает, что его мир разрушен, и вынужден снова взяться за оружие. Но на этот раз Бриггс не одинок на пути мести. Теперь он отец и должен взять с собой свою маленькую дочь Брук, чтобы выследить человека по имени Маккалистер, убившего ее мать. Бриггс - человек, движимый собственными демонами и трудным прошлым.
Сэмпл: http://sendfile.su/1663909- -Тип релиза: WEB-DL 1080p от ExKinoRay
Контейнер: MKV
Видео: MPEG-4 AVC, 1920x800 (2.40:1), 8829 kbps, 23,976 fps
Аудио 1: 48 kHz, AC3, 2.0, 192 kbps | RUS
Аудио 2: 48 kHz, E-AC3, 5.1, 640 kbps | ENG

MediaInfo

General
Complete name : Downloads\The.Old.Way.2023.1080p.AMZN.WEB-DL.ExKinoRay.mkv
Format : Matroska
Format version : Version 4 / Version 2
File size : 6.43 GiB
Duration : 1 h 35 min
Overall bit rate : 9 663 kb/s
Writing application : mkvmerge v73.0.0 ('25 or 6 to 4') 64-bit
Writing library : libebml v1.4.4 + libmatroska v1.7.1
Video #1
ID : 1
Format : AVC
Format/Info : Advanced Video Codec
Format profile : High@L4
Format settings : CABAC / 4 Ref Frames
Format settings, CABAC : Yes
Format settings, ReFrames : 4 frames
Codec ID : V_MPEG4/ISO/AVC
Duration : 1 h 35 min
Bit rate mode : Constant
Bit rate : 8 829 kb/s
Nominal bit rate : 10 000 kb/s
Width : 1 920 pixels
Height : 800 pixels
Display aspect ratio : 2.40:1
Frame rate mode : Constant
Frame rate : 23.976 (24000/1001) FPS
Color space : YUV
Chroma subsampling : 4:2:0
Bit depth : 8 bits
Scan type : Progressive
Bits/(Pixel*Frame) : 0.240
Stream size : 5.87 GiB (91%)
Language : English
Default : Yes
Forced : No
Color range : Limited
Color primaries : BT.709
Transfer characteristics : BT.709
Matrix coefficients : BT.709
Audio #2
ID : 2
Format : AC-3
Format/Info : Audio Coding 3
Codec ID : A_AC3
Duration : 1 h 35 min
Bit rate mode : Constant
Bit rate : 192 kb/s
Channel(s) : 2 channels
Channel positions : Front: L R
Sampling rate : 48.0 kHz
Frame rate : 31.250 FPS (1536 SPF)
Bit depth : 16 bits
Compression mode : Lossy
Delay relative to video : 28 ms
Stream size : 131 MiB (2%)
Title : MVO | TVShows
Language : Russian
Service kind : Complete Main
Default : Yes
Forced : No
Audio #3
ID : 3
Format : E-AC-3
Format/Info : Enhanced Audio Coding 3
Codec ID : A_EAC3
Duration : 1 h 35 min
Bit rate mode : Constant
Bit rate : 640 kb/s
Channel(s) : 6 channels
Channel positions : Front: L C R, Side: L R, LFE
Sampling rate : 48.0 kHz
Frame rate : 187.500 FPS (256 SPF)
Compression mode : Lossy
Stream size : 436 MiB (7%)
Title : Original
Language : English
Service kind : Complete Main
Default : No
Forced : No
Text #4
ID : 4
Format : UTF-8
Codec ID : S_TEXT/UTF8
Codec ID/Info : UTF-8 Plain Text
Duration : 1 h 29 min
Bit rate : 59 b/s
Count of elements : 1306
Stream size : 39.1 KiB (0%)
Title : Full
Language : English
Default : No
Forced : No
Text #5
ID : 5
Format : UTF-8
Codec ID : S_TEXT/UTF8
Codec ID/Info : UTF-8 Plain Text
Duration : 1 h 33 min
Bit rate : 63 b/s
Count of elements : 1492
Stream size : 43.2 KiB (0%)
Title : SDH
Language : English
Default : No
Forced : No

Скриншоты