Загружается…
Ошибка

Бардо / Bardo, falsa crónica de unas cuantas verdades (Алехандро Гонсалес Иньярриту / Alejandro Gonzalez Inarritu) [2022, Мексика, драма, комедия, WEB-DL 1080p] MVO (Jaskier) + AVO (Сербин) + Sub (Rus, Ukr, Eng etc.) + Original Spa

Страницы:  1

Ответить на тему
Автор Сообщение

KiberPirat

Бардо
Bardo, falsa crónica de unas cuantas verdades
Bardo: False Chronicle of a Handful of Truths

Страна: Мексика
Жанр: Драма, комедия
Год выпуска: 2022
Продолжительность: 02:39:30
Перевод 1: Профессиональный (многоголосый закадровый) Jaskier thx Кинопаб
Перевод 2: Авторский (одноголосый закадровый) Ю.Сербин ненормативная лексика thx Кинопаб
Субтитры: Русские, украинские, английские, французские, немецкие, испанские, финские, шведские, датские, норвежские, китайские
Оригинальная аудиодорожка: Испанский
Режиссер: Алехандро Гонсалес Иньярриту / Alejandro Gonzalez Inarritu
В ролях: Даниэль Хименес Качо, Гризельда Сицилиани, Химена Ламадрид, Íker Sánchez Solano, Луис Кутюрье, Луз Хименез, Андрес Альмейда, Клементина Гвадаррама, Джей О. Сэндерс, Франсиско Рубио
Описание: Мексиканский журналист и режиссер-документалист возвращается в родную страну, пребывая в экзистенциальном кризисе. Он пытается отыскать свою идентичность в привычных декорациях понятного прошлого, но за время его отсутствия родина изменилась до неузнаваемости.
Спасибо kro44i за дорожку

Тип релиза: WEB-DL 1080p
Контейнер: MKV
Видео: MPEG-4 AVC, 1080p, 1920:1080 (16:9), 5000 kbps, 24.000 fps
Аудио 1: АС3, 6 ch, 48 kHz, 448 kbps Русский MVO Jaskier
Аудио 2: ААС, 6 ch, 48 kHz, 353 kbps Русский АVO Ю.Сербин ненормативная лексика
Аудио 3: E-AC3 Atmos, 6 ch, 48 kHz, 768 kbps Испанский
Формат субтитров: SRT

MediaInfo

General
Unique ID : 192728136640923768011543762998353703231 (0x90FE16C5505AF0A115CB0ACE732BB13F)
Complete name : G:\Bardo.False.Chronicle.of.a.Handful.of.Truths.2022.NF.WEB-DL.1080p.mkv
Format : Matroska
Format version : Version 4
File size : 7.27 GiB
Duration : 2 h 39 min
Overall bit rate mode : Variable
Overall bit rate : 6 523 kb/s
Encoded date : UTC 2023-01-20 01:45:11
Writing application : mkvmerge v20.0.0 ('I Am The Sun') 64-bit
Writing library : libebml v1.3.5 + libmatroska v1.4.8
Video
ID : 1
Format : AVC
Format/Info : Advanced Video Codec
Format profile : Main@L4
Format settings : CABAC / 3 Ref Frames
Format settings, CABAC : Yes
Format settings, Reference frames : 3 frames
Codec ID : V_MPEG4/ISO/AVC
Duration : 2 h 39 min
Bit rate mode : Variable
Bit rate : 5 000 kb/s
Maximum bit rate : 7 500 kb/s
Width : 1 920 pixels
Height : 1 080 pixels
Display aspect ratio : 16:9
Frame rate mode : Constant
Frame rate : 24.000 FPS
Color space : YUV
Chroma subsampling : 4:2:0
Bit depth : 8 bits
Scan type : Progressive
Bits/(Pixel*Frame) : 0.100
Stream size : 5.51 GiB (76%)
Writing library : x264 core 148 r2727 7d026e8
Encoding settings : cabac=1 / ref=3 / deblock=1:0:0 / analyse=0x1:0x111 / me=umh / subme=10 / psy=1 / psy_rd=1.00:0.00 / mixed_ref=1 / me_range=24 / chroma_me=1 / trellis=2 / 8x8dct=0 / cqm=0 / deadzone=21,11 / fast_pskip=1 / chroma_qp_offset=-2 / threads=8 / lookahead_threads=1 / sliced_threads=0 / nr=0 / decimate=1 / interlaced=0 / bluray_compat=0 / stitchable=1 / constrained_intra=0 / bframes=2 / b_pyramid=0 / b_adapt=2 / b_bias=0 / direct=3 / weightb=1 / open_gop=0 / weightp=2 / keyint=48 / keyint_min=25 / scenecut=0 / intra_refresh=0 / rc_lookahead=48 / rc=2pass / mbtree=1 / bitrate=5000 / ratetol=1.0 / qcomp=0.50 / qpmin=6 / qpmax=51 / qpstep=4 / cplxblur=20.0 / qblur=0.5 / vbv_maxrate=7500 / vbv_bufsize=10000 / nal_hrd=vbr / filler=0 / ip_ratio=1.40 / aq=1:1.00
Language : Spanish
Default : Yes
Forced : No
Audio #1
ID : 2
Format : AC-3
Format/Info : Audio Coding 3
Commercial name : Dolby Digital
Codec ID : A_AC3
Duration : 2 h 39 min
Bit rate mode : Constant
Bit rate : 448 kb/s
Channel(s) : 6 channels
Channel layout : L R C LFE Ls Rs
Sampling rate : 48.0 kHz
Frame rate : 31.250 FPS (1536 SPF)
Compression mode : Lossy
Stream size : 511 MiB (7%)
Title : MVO Jaskier
Language : Russian
Service kind : Complete Main
Default : Yes
Forced : No
Audio #2
ID : 3
Format : AAC LC
Format/Info : Advanced Audio Codec Low Complexity
Codec ID : A_AAC-2
Duration : 2 h 39 min
Bit rate : 353 kb/s
Channel(s) : 6 channels
Channel layout : C L R Ls Rs LFE
Sampling rate : 48.0 kHz
Frame rate : 46.875 FPS (1024 SPF)
Compression mode : Lossy
Stream size : 404 MiB (5%)
Title : АVO Ю.Сербин ненормативная лексика
Language : Russian
Default : No
Forced : No
Audio #3
ID : 4
Format : E-AC-3 JOC
Format/Info : Enhanced AC-3 with Joint Object Coding
Commercial name : Dolby Digital Plus with Dolby Atmos
Codec ID : A_EAC3
Duration : 2 h 39 min
Bit rate mode : Constant
Bit rate : 768 kb/s
Channel(s) : 6 channels
Channel layout : L R C LFE Ls Rs
Sampling rate : 48.0 kHz
Frame rate : 31.250 FPS (1536 SPF)
Compression mode : Lossy
Stream size : 876 MiB (12%)
Language : Spanish
Service kind : Complete Main
Default : No
Forced : No
Complexity index : 16
Number of dynamic objects : 15
Bed channel count : 1 channel
Bed channel configuration : LFE
Text #1
ID : 5
Format : UTF-8
Codec ID : S_TEXT/UTF8
Codec ID/Info : UTF-8 Plain Text
Duration : 2 h 35 min
Bit rate : 79 b/s
Count of elements : 1615
Stream size : 90.2 KiB (0%)
Language : Russian
Default : No
Forced : No
Text #2
ID : 6
Format : UTF-8
Codec ID : S_TEXT/UTF8
Codec ID/Info : UTF-8 Plain Text
Duration : 2 h 35 min
Bit rate : 77 b/s
Count of elements : 1688
Stream size : 88.6 KiB (0%)
Language : Ukrainian
Default : No
Forced : No
Text #3
ID : 7
Format : UTF-8
Codec ID : S_TEXT/UTF8
Codec ID/Info : UTF-8 Plain Text
Duration : 2 h 23 min
Bit rate : 44 b/s
Count of elements : 1350
Stream size : 47.0 KiB (0%)
Language : English
Default : No
Forced : No
Text #4
ID : 8
Format : UTF-8
Codec ID : S_TEXT/UTF8
Codec ID/Info : UTF-8 Plain Text
Duration : 2 h 35 min
Bit rate : 52 b/s
Count of elements : 1669
Stream size : 59.3 KiB (0%)
Language : French
Default : No
Forced : No
Text #5
ID : 9
Format : UTF-8
Codec ID : S_TEXT/UTF8
Codec ID/Info : UTF-8 Plain Text
Duration : 2 h 38 min
Bit rate : 46 b/s
Count of elements : 1629
Stream size : 53.7 KiB (0%)
Language : German
Default : No
Forced : No
Text #6
ID : 10
Format : UTF-8
Codec ID : S_TEXT/UTF8
Codec ID/Info : UTF-8 Plain Text
Duration : 2 h 32 min
Bit rate : 9 b/s
Count of elements : 301
Stream size : 11.0 KiB (0%)
Title : forced
Language : Spanish
Default : No
Forced : No
Text #7
ID : 11
Format : UTF-8
Codec ID : S_TEXT/UTF8
Codec ID/Info : UTF-8 Plain Text
Duration : 2 h 35 min
Bit rate : 56 b/s
Count of elements : 1789
Stream size : 64.5 KiB (0%)
Language : Spanish
Default : No
Forced : No
Text #8
ID : 12
Format : UTF-8
Codec ID : S_TEXT/UTF8
Codec ID/Info : UTF-8 Plain Text
Duration : 2 h 35 min
Bit rate : 48 b/s
Count of elements : 1492
Stream size : 54.8 KiB (0%)
Language : Finnish
Default : No
Forced : No
Text #9
ID : 13
Format : UTF-8
Codec ID : S_TEXT/UTF8
Codec ID/Info : UTF-8 Plain Text
Duration : 2 h 35 min
Bit rate : 48 b/s
Count of elements : 1438
Stream size : 54.7 KiB (0%)
Language : Swedish
Default : No
Forced : No
Text #10
ID : 14
Format : UTF-8
Codec ID : S_TEXT/UTF8
Codec ID/Info : UTF-8 Plain Text
Duration : 2 h 35 min
Bit rate : 47 b/s
Count of elements : 1650
Stream size : 53.5 KiB (0%)
Language : Danish
Default : No
Forced : No
Text #11
ID : 15
Format : UTF-8
Codec ID : S_TEXT/UTF8
Codec ID/Info : UTF-8 Plain Text
Duration : 2 h 35 min
Bit rate : 45 b/s
Count of elements : 1652
Stream size : 51.5 KiB (0%)
Language : Norwegian Bokmal
Default : No
Forced : No
Text #12
ID : 16
Format : UTF-8
Codec ID : S_TEXT/UTF8
Codec ID/Info : UTF-8 Plain Text
Duration : 2 h 35 min
Bit rate : 52 b/s
Count of elements : 1621
Stream size : 59.3 KiB (0%)
Title : Simplified
Language : Chinese
Default : No
Forced : No
Menu
02:29:53.000 : en:End Credits

Скриншоты