Загружается…
Ошибка

Воля вселенной (Дмитрий Михлеев) [1988, СССР, приключения, детский, семейный, детектив, WEB-DL 1080p] Original Rus

Страницы:  1

Ответить на тему
Автор Сообщение

KiberPirat

Воля вселенной
Страна: СССР
Студия: Беларусьфильм
Жанр: приключения, детский, семейный, детектив
Год выпуска: 1988
Продолжительность: 01:06:39
Перевод: Не требуется
Субтитры: нет
Оригинальная аудиодорожка: Русский
Режиссер: Дмитрий Михлеев
В ролях: Вячеслав Илющенко, Наталья Гусева, Андрей Бабошкин, Денис Германов, Игорь Жигалов, Сергей Савчук (II), Диана Красницкая, Александр Денисов, Виктор Ильичёв, Сергей Векслер, Валерия Богук, Мария Виноградова, Александра Климова, Любовь Германова, Иван Мацкевич, Александр Лабуш, Елена Одинцова (III)
Описание: В «Книге судьбы» сказано, что семикласснику Диме суждено погибнуть в аварии в ближайшее воскресенье. Как назло, именно в этот день сосед-пилот предлагает мальчику слетать в Ленинград. Дима отправляет прощальное письмо своей однокласснице Лене, в которую тайно влюблён, и назло неблагоприятному стечению обстоятельств и «воле Вселенной» принимает мужественное решение...
Дополнительная информация:
Автор релиза -
Исходник видео и аудио - с онлайн-кинотеатра «Триколор Кино и ТВ онлайн»
Отличный трансфер!
Чистый видеоряд без посторонних надписей и логотипов




Тип релиза: WEB-DL 1080p
Контейнер: MKV
Видео: MPEG-4, 1920x1080 (16:9), 4000 kbps, 25 fps, 0.077 bit/pixel
Аудио: Русский АC3, 48000 Гц, 2ch, 192 kbps

MediaInfo

Общее
Уникальный идентификатор : 166115778286671766927220482130424827832 (0x7CF8BC33B1041613847554984C270FB8)
Полное имя : Воля.вселенной.1988.WEB.1080p-ylnian.mkv
Формат : Matroska
Версия формата : Version 4
Размер файла : 1,95 Гбайт
Продолжительность : 1 ч. 6 м.
Режим общего битрейта : Постоянный
Общий поток : 4 191 Кбит/сек
Дата кодирования : UTC 2023-01-21 14:16:28
Программа кодирования : mkvmerge v73.0.0 ('25 or 6 to 4') 64-bit
Библиотека кодирования : libebml v1.4.4 + libmatroska v1.7.1
Видео
Идентификатор : 1
Формат : AVC
Формат/Информация : Advanced Video Codec
Профиль формата : High@L4.1
Настройки формата : CABAC / 4 Ref Frames
Параметр CABAC формата : Да
Параметр RefFrames формата : 4 кадра
Идентификатор кодека : V_MPEG4/ISO/AVC
Продолжительность : 1 ч. 6 м.
Вид битрейта : Постоянный
Битрейт : 4 000 Кбит/сек
Ширина : 1 920 пикселей
Высота : 1 080 пикселей
Соотношение сторон : 16:9
Режим частоты кадров : Постоянный
Частота кадров : 25,000 кадров/сек
Цветовое пространство : YUV
Субдискретизация насыщенности : 4:2:0
Битовая глубина : 8 бит
Тип развёртки : Прогрессивная
Бит/(Пиксели*Кадры) : 0.077
Размер потока : 1,86 Гбайт (95%)
Язык : Russian
Default : Да
Forced : Нет
Цветовой диапазон : Limited
Основные цвета : BT.709
Характеристики трансфера : BT.709
Коэффициенты матрицы : BT.709
Аудио
Идентификатор : 2
Формат : AC-3
Формат/Информация : Audio Coding 3
Коммерческое название : Dolby Digital
Идентификатор кодека : A_AC3
Продолжительность : 1 ч. 6 м.
Вид битрейта : Постоянный
Битрейт : 192 Кбит/сек
Каналы : 2 канала
Channel layout : L R
Частота : 48,0 КГц
Частота кадров : 31,250 кадров/сек (1536 SPF)
Метод сжатия : С потерями
Размер потока : 91,5 Мбайт (5%)
Язык : Russian
Service kind : Complete Main
Default : Да
Forced : Нет

Сравнение

Сравнение с DVB - https://slow.pics/c/6ZGxOfnC
+ Больше наполнение кадра
+ Выше чёткость и детализация
+ Отсутствие дефектов плёнки
+ Правильная цветопередача

Скриншоты