Загружается…
Ошибка

Любовь как бестселлер / Book of Love (Аналейне Каль-и-Майор / Analeine Cal y Mayor) [2022, Мексика, Великобритания, мелодрама, комедия, WEB-DL 1080p] Dub (Dub, CPI Films, iTunes) + MVO (Jaskier) + Sub (Rus, Eng, Fra) + Original Eng

Страницы:  1

Ответить на тему
Автор Сообщение

KiberPirat

Любовь как бестселлер
Book of Love

Страна: Мексика, Великобритания
Жанр: Мелодрама, комедия
Год выпуска: 2022
Продолжительность: 01:46:00
Перевод 1: Профессиональный (дублированный) Dub, CPI Films, iTunes
Перевод 2: Профессиональный (многоголосый закадровый) Jaskier
Субтитры: Русские, английские (forced, full), французские, испанские (forced)
Оригинальная аудиодорожка: Aнглийский
Режиссер: Аналейне Каль-и-Майор / Analeine Cal y Mayor
В ролях: Сэм Клафлин, Вероника Эчеги, Фернандо Бесерриль, Руй Гайтан, Горацио Виллалобос, Горасио Гарсиа Рохас, Люси Панч, Флор Едуарда Гуррола, Мелисса Пино, Даниэла Луке
Описание: Молодой и скромный английский писатель узнаёт, что его сдержанный личный опус вдруг стал феноменальным бестселлером в Мексике и привлек к нему толпы поклонниц. Всё благодаря своенравной переводчице, которая без его ведома превратила книгу в горячий эротический роман. Горе-творцам не остается ничего, кроме как отправиться в совместный тур по стране, выпустив на свободу все потаённые чувства друг к другу.

Тип релиза: WEB-DL 1080p
Контейнер: MKV
Видео: MPEG-4 AVC, 1080p, 1920:1040 (1.85:1), 8835 kbps, 24.000 fps
Аудио 1: АС3, 6 ch, 48 kHz, 384 kbps Русский Dub Dub, CPI Films, iTunes
Аудио 2: АС3, 6 ch, 48 kHz, 640 kbps Русский MVO Jaskier
Аудио 3: E-AC3, 6 ch, 48 kHz, 640 kbps Английский
Формат субтитров: SRT

MediaInfo

General
Unique ID : 103795316048339654927441443246126937643 (0x4E16402F9C08B31BD639A511B4C0362B)
Complete name : G:\ФИЛЬМЫ\RuTRACKER\Book.of.Love.2022.AMZN.WEB-DL.1080p.mkv
Format : Matroska
Format version : Version 4
File size : 7.78 GiB
Duration : 1 h 46 min
Overall bit rate : 10.5 Mb/s
Encoded date : UTC 2022-02-14 20:12:40
Writing application : mkvmerge v20.0.0 ('I Am The Sun') 64-bit
Writing library : libebml v1.3.5 + libmatroska v1.4.8
Video
ID : 1
Format : AVC
Format/Info : Advanced Video Codec
Format profile : High@L4
Format settings : CABAC / 4 Ref Frames
Format settings, CABAC : Yes
Format settings, Reference frames : 4 frames
Codec ID : V_MPEG4/ISO/AVC
Duration : 1 h 46 min
Bit rate mode : Constant
Bit rate : 8 835 kb/s
Nominal bit rate : 10 000 kb/s
Width : 1 920 pixels
Height : 1 040 pixels
Display aspect ratio : 1.85:1
Frame rate mode : Constant
Frame rate : 24.000 FPS
Color space : YUV
Chroma subsampling : 4:2:0
Bit depth : 8 bits
Scan type : Progressive
Bits/(Pixel*Frame) : 0.184
Stream size : 6.54 GiB (84%)
Language : English
Default : Yes
Forced : No
Color range : Limited
Color primaries : BT.709
Transfer characteristics : BT.709
Matrix coefficients : BT.709
Audio #1
ID : 2
Format : AC-3
Format/Info : Audio Coding 3
Commercial name : Dolby Digital
Codec ID : A_AC3
Duration : 1 h 45 min
Bit rate mode : Constant
Bit rate : 384 kb/s
Channel(s) : 6 channels
Channel layout : L R C LFE Ls Rs
Sampling rate : 48.0 kHz
Frame rate : 31.250 FPS (1536 SPF)
Compression mode : Lossy
Stream size : 290 MiB (4%)
Title : Dub iTunes
Language : Russian
Service kind : Complete Main
Default : Yes
Forced : No
Audio #2
ID : 3
Format : AC-3
Format/Info : Audio Coding 3
Commercial name : Dolby Digital
Codec ID : A_AC3
Duration : 1 h 46 min
Bit rate mode : Constant
Bit rate : 640 kb/s
Channel(s) : 6 channels
Channel layout : L R C LFE Ls Rs
Sampling rate : 48.0 kHz
Frame rate : 31.250 FPS (1536 SPF)
Compression mode : Lossy
Stream size : 485 MiB (6%)
Title : MVO Jaskier
Language : Russian
Service kind : Complete Main
Default : No
Forced : No
Audio #3
ID : 4
Format : E-AC-3
Format/Info : Enhanced AC-3
Commercial name : Dolby Digital Plus
Codec ID : A_EAC3
Duration : 1 h 46 min
Bit rate mode : Constant
Bit rate : 640 kb/s
Channel(s) : 6 channels
Channel layout : L R C LFE Ls Rs
Sampling rate : 48.0 kHz
Frame rate : 31.250 FPS (1536 SPF)
Compression mode : Lossy
Stream size : 485 MiB (6%)
Language : English
Service kind : Complete Main
Default : No
Forced : No
Text #1
ID : 5
Format : UTF-8
Codec ID : S_TEXT/UTF8
Codec ID/Info : UTF-8 Plain Text
Duration : 1 h 38 min
Bit rate : 99 b/s
Count of elements : 1449
Stream size : 71.8 KiB (0%)
Language : Russian
Default : No
Forced : No
Text #2
ID : 6
Format : UTF-8
Codec ID : S_TEXT/UTF8
Codec ID/Info : UTF-8 Plain Text
Duration : 1 h 31 min
Bit rate : 16 b/s
Count of elements : 430
Stream size : 11.2 KiB (0%)
Title : forced
Language : English
Default : No
Forced : No
Text #3
ID : 7
Format : UTF-8
Codec ID : S_TEXT/UTF8
Codec ID/Info : UTF-8 Plain Text
Duration : 1 h 38 min
Bit rate : 60 b/s
Count of elements : 1776
Stream size : 43.9 KiB (0%)
Language : English
Default : No
Forced : No
Text #4
ID : 8
Format : UTF-8
Codec ID : S_TEXT/UTF8
Codec ID/Info : UTF-8 Plain Text
Duration : 1 h 43 min
Bit rate : 40 b/s
Count of elements : 1088
Stream size : 30.5 KiB (0%)
Title : forced
Language : Spanish
Default : No
Forced : No
Text #5
ID : 9
Format : UTF-8
Codec ID : S_TEXT/UTF8
Codec ID/Info : UTF-8 Plain Text
Duration : 1 h 43 min
Bit rate : 53 b/s
Count of elements : 1474
Stream size : 40.1 KiB (0%)
Language : French
Default : No
Forced : No
Menu
00:00:00.000 : en:Amazon Original
00:00:06.000 : en:Studio Logo
00:00:46.000 : en:Opening Credits
00:02:53.000 : en:Scene 4
00:05:46.000 : en:Scene 5
00:08:44.000 : en:Scene 6
00:09:25.000 : en:Scene 7
00:10:53.000 : en:Scene 8
00:13:46.000 : en:Scene 9
00:14:33.000 : en:Scene 10
00:16:05.000 : en:Scene 11
00:17:46.000 : en:Scene 12
00:18:26.000 : en:Scene 13
00:24:57.000 : en:Scene 14
00:27:41.000 : en:Scene 15
00:32:08.000 : en:Scene 16
00:32:39.000 : en:Scene 17
00:37:01.000 : en:Scene 18
00:39:04.000 : en:Scene 19
00:41:55.000 : en:Scene 20
00:42:27.000 : en:Scene 21
00:46:14.000 : en:Scene 22
00:48:57.000 : en:Scene 23
00:50:10.000 : en:Scene 24
00:51:06.000 : en:Scene 25
00:54:58.000 : en:Scene 26
00:59:31.000 : en:Scene 27
01:01:06.000 : en:Scene 28
01:04:13.000 : en:Scene 29
01:06:17.000 : en:Scene 30
01:07:32.000 : en:Scene 31
01:07:58.000 : en:Scene 32
01:14:10.000 : en:Scene 33
01:16:37.000 : en:Scene 34
01:20:45.000 : en:Scene 35
01:22:41.000 : en:Scene 36
01:24:30.000 : en:Scene 37
01:27:30.000 : en:Scene 38
01:29:32.000 : en:Scene 39
01:30:34.000 : en:Scene 40
01:31:15.000 : en:Scene 41
01:32:50.000 : en:Scene 42
01:35:51.000 : en:Scene 43
01:40:33.000 : en:End Credits