Загружается…
Ошибка

Падение замка / Castle Falls (Дольф Лундгрен / Dolph Lundgren) [2021, США, боевик, триллер, драма, BDRip 1080p] MVO (Кинопоиск HD) + MVO Ukr + Sub (Rus, Eng etc.) + Original Eng

Страницы:  1

Ответить на тему
Автор Сообщение

KiberPirat

Падение замка
Castle Falls

Страна: США
Жанр: Боевик, триллер, драма
Год выпуска: 2021
Продолжительность: 01:29:34
Перевод: Профессиональный (многоголосый закадровый) Кинопоиск HD
Субтитры: Русские (ненормативная лексика), английские, испанские, финские, датские, шведские, норвежские
Оригинальная аудиодорожка: Английский
Режиссер: Дольф Лундгрен / Dolph Lundgren
В ролях: Скотт Эдкинс, Дольф Лундгрен, Скотт Хантер, Ким ДеЛонги, Кевин Уэйн, Ида Лундгрен, Connor Lyons, J.C. Leuyer, Vas Sanchez, Justin B. Wooten
Описание: Соперничающие банды готовятся забрать миллионы долларов, спрятанные в роскошном жилом доме, который скоро снесут. Планам гангстеров мешает обычный уборщик, случайно нашедший заначку раньше всех.

Тип релиза: BDRip 1080p
Контейнер: MKV
Видео: MPEG-4 AVC, 1080p, 1920:804 (2.40:1), 18.7 Mbps, 23.976 fps
Аудио 1: АС3, 2 ch, 48 kHz, 192 kbps Русский MVO Кинопоиск HD
Аудио 2: АС3, 2 ch, 48 kHz, 192 kbps Украинский MVO 2+2
Аудио 3: Е-АС3, 6 ch, 48 kHz, 1024 kbps Английский
Формат субтитров: SRT

MediaInfo

x264 [info]: frame I:768   Avg QP:13.78  size:250841
x264 [info]: frame P:28019 Avg QP:15.27 size:138541
x264 [info]: frame B:100070 Avg QP:16.10 size: 84630
x264 [info]: consecutive B-frames: 2.1% 3.4% 12.0% 10.5% 15.7% 44.1% 6.5% 0.6% 0.6% 0.5% 0.3% 0.2% 0.2% 0.2% 0.7% 0.6%
*Dirty Lines fixed
General
Unique ID : 169256018528527521266223002324077615513 (0x7F5585FFD929FF33D548E2A217439999)
Complete name : G:\ФИЛЬМЫ\RuTRACKER\Castle.Falls.2021.BDRip.1080p.mkv
Format : Matroska
Format version : Version 4
File size : 12.6 GiB
Duration : 1 h 29 min
Overall bit rate : 20.1 Mb/s
Encoded date : UTC 2022-02-17 07:13:45
Writing application : mkvmerge v20.0.0 ('I Am The Sun') 64-bit
Writing library : libebml v1.3.5 + libmatroska v1.4.8
Video
ID : 1
Format : AVC
Format/Info : Advanced Video Codec
Format profile : High@L4.1
Format settings : CABAC / 5 Ref Frames
Format settings, CABAC : Yes
Format settings, Reference frames : 5 frames
Codec ID : V_MPEG4/ISO/AVC
Duration : 1 h 29 min
Bit rate : 18.7 Mb/s
Width : 1 920 pixels
Height : 804 pixels
Display aspect ratio : 2.40:1
Frame rate mode : Constant
Frame rate : 23.976 (24000/1001) FPS
Color space : YUV
Chroma subsampling : 4:2:0
Bit depth : 8 bits
Scan type : Progressive
Bits/(Pixel*Frame) : 0.504
Stream size : 11.7 GiB (93%)
Title : iFT
Writing library : x264 core 164 r3079+60M Encoded by Azevedo in Brazil
Encoding settings : cabac=1 / ref=5 / deblock=1:-3:-3 / analyse=0x3:0x113 / me=umh / subme=11 / psy=1 / fade_compensate=0.00 / psy_rd=1.00:0.00 / mixed_ref=1 / me_range=48 / chroma_me=1 / trellis=2 / 8x8dct=1 / cqm=0 / deadzone=21,11 / fast_pskip=0 / chroma_qp_offset=-2 / threads=18 / lookahead_threads=4 / sliced_threads=0 / nr=0 / decimate=0 / interlaced=0 / bluray_compat=0 / constrained_intra=0 / fgo=0 / bframes=16 / b_pyramid=2 / b_adapt=2 / b_bias=0 / direct=3 / weightb=1 / open_gop=0 / weightp=2 / keyint=250 / keyint_min=23 / scenecut=40 / intra_refresh=0 / rc_lookahead=60 / rc=crf / mbtree=0 / crf=16.2000 / qcomp=0.60 / qpmin=0:0:0 / qpmax=69:69:69 / qpstep=4 / vbv_maxrate=62500 / vbv_bufsize=78125 / crf_max=0.0 / nal_hrd=none / filler=0 / ip_ratio=1.30 / pb_ratio=1.20 / aq=3:0.80 / aq-sensitivity=10.00 / aq-factor=1.00:1.00:1.00 / aq2=0 / aq3=0
Language : English
Default : Yes
Forced : No
Color range : Limited
Color primaries : BT.709
Transfer characteristics : BT.709
Matrix coefficients : BT.709
Audio #1
ID : 2
Format : AC-3
Format/Info : Audio Coding 3
Commercial name : Dolby Digital
Codec ID : A_AC3
Duration : 1 h 29 min
Bit rate mode : Constant
Bit rate : 192 kb/s
Channel(s) : 2 channels
Channel layout : L R
Sampling rate : 48.0 kHz
Frame rate : 31.250 FPS (1536 SPF)
Compression mode : Lossy
Stream size : 123 MiB (1%)
Title : MVO Кинопоиск HD
Language : Russian
Service kind : Complete Main
Default : Yes
Forced : No
Audio #2
ID : 3
Format : AC-3
Format/Info : Audio Coding 3
Commercial name : Dolby Digital
Codec ID : A_AC3
Duration : 1 h 29 min
Bit rate mode : Constant
Bit rate : 192 kb/s
Channel(s) : 2 channels
Channel layout : L R
Sampling rate : 48.0 kHz
Frame rate : 31.250 FPS (1536 SPF)
Compression mode : Lossy
Stream size : 123 MiB (1%)
Title : MVO 2+2
Language : Ukrainian
Service kind : Complete Main
Default : No
Forced : No
Audio #3
ID : 4
Format : E-AC-3
Format/Info : Enhanced AC-3
Commercial name : Dolby Digital Plus
Codec ID : A_EAC3
Duration : 1 h 29 min
Bit rate mode : Constant
Bit rate : 1 024 kb/s
Channel(s) : 6 channels
Channel layout : L R C LFE Ls Rs
Sampling rate : 48.0 kHz
Frame rate : 31.250 FPS (1536 SPF)
Compression mode : Lossy
Stream size : 656 MiB (5%)
Language : English
Service kind : Complete Main
Default : No
Forced : No
Text #1
ID : 5
Format : UTF-8
Codec ID : S_TEXT/UTF8
Codec ID/Info : UTF-8 Plain Text
Duration : 1 h 27 min
Bit rate : 85 b/s
Count of elements : 1047
Stream size : 54.8 KiB (0%)
Title : ненормативная лексика
Language : Russian
Default : No
Forced : No
Text #2
ID : 6
Format : UTF-8
Codec ID : S_TEXT/UTF8
Codec ID/Info : UTF-8 Plain Text
Duration : 1 h 23 min
Bit rate : 46 b/s
Count of elements : 964
Stream size : 28.6 KiB (0%)
Language : English
Default : No
Forced : No
Text #3
ID : 7
Format : UTF-8
Codec ID : S_TEXT/UTF8
Codec ID/Info : UTF-8 Plain Text
Duration : 1 h 23 min
Bit rate : 46 b/s
Count of elements : 944
Stream size : 28.7 KiB (0%)
Language : Spanish
Default : No
Forced : No
Text #4
ID : 8
Format : UTF-8
Codec ID : S_TEXT/UTF8
Codec ID/Info : UTF-8 Plain Text
Duration : 1 h 28 min
Bit rate : 31 b/s
Count of elements : 556
Stream size : 20.2 KiB (0%)
Language : Finnish
Default : No
Forced : No
Text #5
ID : 9
Format : UTF-8
Codec ID : S_TEXT/UTF8
Codec ID/Info : UTF-8 Plain Text
Duration : 1 h 28 min
Bit rate : 31 b/s
Count of elements : 556
Stream size : 20.2 KiB (0%)
Language : Danish
Default : No
Forced : No
Text #6
ID : 10
Format : UTF-8
Codec ID : S_TEXT/UTF8
Codec ID/Info : UTF-8 Plain Text
Duration : 1 h 28 min
Bit rate : 33 b/s
Count of elements : 556
Stream size : 21.5 KiB (0%)
Language : Swedish
Default : No
Forced : No
Text #7
ID : 11
Format : UTF-8
Codec ID : S_TEXT/UTF8
Codec ID/Info : UTF-8 Plain Text
Duration : 1 h 28 min
Bit rate : 30 b/s
Count of elements : 556
Stream size : 19.9 KiB (0%)
Language : Norwegian
Default : No
Forced : No
Menu
00:00:00.000 : en:Chapter 01
00:09:28.777 : en:Chapter 02
00:18:15.636 : en:Chapter 03
00:26:34.468 : en:Chapter 04
00:33:41.436 : en:Chapter 05
00:41:31.322 : en:Chapter 06
00:48:32.284 : en:Chapter 07
00:52:09.793 : en:Chapter 08
00:56:51.158 : en:Chapter 09
01:05:27.799 : en:Chapter 10
01:13:03.296 : en:Chapter 11
01:24:06.416 : en:Chapter 12