Загружается…
Ошибка

Белое солнце пустыни / White Sun of the Desert (Владимир Мотыль / Vladimir Motyl) [1970, СССР, приключения, комедия, драма, военный, BDRemux 1080p] [Крупный план] Sub Rus, Eng + Original Rus

Страницы:  1

Ответить на тему
Автор Сообщение

Scaramouche

Белое солнце пустыни- Страна: СССР
Студия: Мосфильм
Жанр: приключения, комедия, драма, военный
Год выпуска: 1970
Продолжительность: 01:23:26-Перевод: не требуется
Субтитры: русские (Мосфильм), английские
Оригинальная аудиодорожка: русский-Режиссер: Владимир Мотыль
В ролях: Анатолий Кузнецов, Спартак Мишулин, Кахи Кавсадзе, Павел Луспекаев, Раиса Куркина, Татьяна Федотова, Николай Годовиков, Муса Дудаев, Николай Бадьев, Владимир Кадочников и др.-Описание: Бесконечная пустыня, боец Сухов, прикуривающий с динамитной шашки, нескладный Петруха с вечно заклинивающей трехлинейкой, обаятельный Верещагин, с надоевшей чёрной икрой и знаменитыми песнями-балладами, ловкий Саид с незабвенным «Стреляли», злодей Абдулла со своей бандой, любознательная Гульчатай, играющая с черепахою... Кажется, сюжет этого советского фильма давно знает наизусть и стар, и млад. Любой расскажет вам об этом и... Вновь прилипнет к экрану, увидев титры фильма-легенды.-Тип релиза: BDRemux 1080p
Контейнер: MKV (Сэмпл)
Видео: MPEG-4 AVC / 1920x1080 / 18758 kbps / 24 fps / 1.37:1
Аудио: Russian AC-3 1.0 / 384 kbps / 48 kHz / DVD (Крупный план)
Формат субтитров: softsub (SRT)
Навигация по главам: есть (подписаны)- -

BDInfo

Disc Title: Белое солнце пустыни
Disc Size: 22 107 998 148 bytes
Protection: AACS
BD-Java: No
Playlist: 00002.MPLS
Size: 16 637 607 936 bytes
Length: 1:23:31.673
Total Bitrate: 26,56 Mbps
Video: MPEG-4 AVC Video / 18758 kbps / 1080p / 23,976 fps / 16:9 / High Profile 4.1
Audio: Russian / DTS-HD Master Audio / 5.1 / 48 kHz / 3578 kbps / 24-bit (DTS Core: 5.1 / 48 kHz / 1509 kbps / 24-bit)
Audio: Russian / Dolby Digital Audio / 5.1 / 48 kHz / 448 kbps
Audio: Russian / LPCM Audio / 1.0 / 48 kHz / 1152 kbps / 24-bit

MediaInfo

Общее
Уникальный идентификатор : 182962934793467278228859668284433064408 (0x89A56125CF1FEC586527DC61B01D61D8)
Полное имя : Белое.солнце.пустыни.1969.RU.Крупный.план.BDRemux.1080p-rutracker.mkv
Формат : Matroska
Версия формата : Version 4
Размер файла : 11,2 Гбайт
Продолжительность : 1 ч. 23 м.
Режим общего битрейта : Переменный
Общий поток : 19,2 Мбит/сек
Название фильма : Белое солнце пустыни / 1969 / Крупный план
Дата кодирования : UTC 2023-01-09 12:31:08
Программа кодирования : mkvmerge v72.0.0 ('Minuano (Six-eight)') 64-bit
Библиотека кодирования : libebml v1.4.4 + libmatroska v1.7.1
Обложка : Yes
Attachments : cover.jpg
Видео
Идентификатор : 1
Формат : AVC
Формат/Информация : Advanced Video Codec
Профиль формата : High@L4.1
Настройки формата : CABAC / 4 Ref Frames
Параметр CABAC формата : Да
Параметр RefFrames формата : 4 кадра
Идентификатор кодека : V_MPEG4/ISO/AVC
Продолжительность : 1 ч. 23 м.
Вид битрейта : Переменный
Битрейт : 18,8 Мбит/сек
Максимальный битрейт : 22,0 Мбит/сек
Ширина : 1 920 пикселей
Высота : 1 080 пикселей
Соотношение сторон : 16:9
Режим частоты кадров : Постоянный
Частота кадров : 24,000 кадра/сек
Стандарт вещания : NTSC
Цветовое пространство : YUV
Субдискретизация насыщенности : 4:2:0
Битовая глубина : 8 бит
Тип развёртки : Прогрессивная
Бит/(Пиксели*Кадры) : 0.377
Размер потока : 10,9 Гбайт (98%)
Заголовок : Белое солнце пустыни / MPEG-4 AVC @ 18758 kbps
Язык : Russian
Default : Да
Forced : Нет
Цветовой диапазон : Limited
Основные цвета : BT.709
Характеристики трансфера : BT.709
Коэффициенты матрицы : BT.709
Аудио
Идентификатор : 2
Формат : AC-3
Формат/Информация : Audio Coding 3
Коммерческое название : Dolby Digital
Идентификатор кодека : A_AC3
Продолжительность : 1 ч. 23 м.
Вид битрейта : Постоянный
Битрейт : 384 Кбит/сек
Каналы : 1 канал
Channel layout : C
Частота : 48,0 КГц
Частота кадров : 31,250 кадров/сек (1536 SPF)
Метод сжатия : С потерями
Размер потока : 229 Мбайт (2%)
Заголовок : DVD (Крупный план) / AC3 1.0 @ 384 kbps
Язык : Russian
Service kind : Complete Main
Default : Да
Forced : Нет
Текст #1
Идентификатор : 3
Формат : UTF-8
Идентификатор кодека : S_TEXT/UTF8
Идентификатор кодека/Информация : UTF-8 Plain Text
Продолжительность : 1 ч. 22 м.
Битрейт : 51 бит/сек
Частота кадров : 0,118 кадр/сек
Count of elements : 584
Размер потока : 30,9 Кбайт (0%)
Заголовок : Мосфильм / SRT
Язык : Russian
Default : Нет
Forced : Нет
Текст #2
Идентификатор : 4
Формат : UTF-8
Идентификатор кодека : S_TEXT/UTF8
Идентификатор кодека/Информация : UTF-8 Plain Text
Продолжительность : 1 ч. 22 м.
Битрейт : 33 бит/сек
Частота кадров : 0,120 кадр/сек
Count of elements : 594
Размер потока : 20,0 Кбайт (0%)
Заголовок : (Regular) / SRT
Язык : English
Default : Нет
Forced : Нет
Меню
00:00:00.000 : ru:Пустыня
00:07:01.292 : ru:Солнце клонилось к закату
00:10:29.500 : ru:Восток - дело тонкое
00:15:33.125 : ru:На третий день
00:21:05.417 : ru:Стреляли
00:24:15.208 : ru:Давно здесь сидим
00:27:01.833 : ru:Товарищи женщины
00:33:44.167 : ru:Это товарищ Сухов
00:39:25.583 : ru:Павлины, говоришь?
00:43:27.875 : ru:Что есть добро, что - зло
00:47:35.750 : ru:Маленькая заминка
00:56:16.167 : ru:Гюльчатай, открой личико
01:00:50.917 : ru:Подземный ход
01:04:57.750 : ru:Гранаты не той системы
01:16:14.958 : ru:Таможня даёт добро
01:21:15.958 : ru:Солнце ещё не взошло

Скриншоты


-
  • Цифровая реставрация изображения (Объединение «Крупный план»);
  • Видео "перетянуто" в нативные 24 fps, звук из раздачи DVD9 от Basilevs;
  • Тональность у дорожек с BD правильная, но звучат они с сильными искажениями (как от перетяга с сохранением тона плохим алгоритмом).